Modérateurs: Staff Home-Cinéma, Staff Juridique • Utilisateurs parcourant ce forum: Aucun utilisateur enregistré et 7 invités

Tout ce qui concerne les logiciels lié au HC sur ordinateur (PC, Mac, Linux...)
Règles du forum
Avant de poster, merci de prendre connaissance des règles du forum : à lire avant de poster

Conversion M2TS vers MKV

Message » 23 Aoû 2010 13:39

Bonjour à tous !

J'essaye de me lancer dans la conversion de quelqu'uns de mes blu-ray en MKV. Pour cela j'ai essayé DVDfab7, mais en resultat, j'ai systematiquement le son qui décalé avec l'image.
Avez-vous une idée du pourquoi, ou pouvez-vous me conseiller un autre logiciel ?

Les infos du m2ts:
Code: Tout sélectionner
Info for File [G:\Clownbd\Clownbd.M2TS] (DVDFab 7.0.9.3)

General
ID                               : 1
Complete name                    : G:\Clownbd\Clownbd.M2TS
Format                           : BDAV
Format/Info                      : Blu-ray Video
File size                        : 11.2 GiB
Duration                         : 52mn 17s
Overall bit rate                 : 30.7 Mbps
Maximum Overall bit rate         : 35.5 Mbps

Video
ID                               : 4113 (0x1011)
Menu ID                          : 1 (0x1)
Format                           : AVC
Format/Info                      : Advanced Video Codec
Format profile                   : High@L4.1
Format settings, CABAC           : Yes
Format settings, ReFrames        : 4 frames
Duration                         : 52mn 17s
Bit rate                         : 28.8 Mbps
Width                            : 1 920 pixels
Height                           : 1 080 pixels
Display aspect ratio             : 16:9
Frame rate                       : 23.976 fps
Resolution                       : 8 bits
Colorimetry                      : 4:2:0
Scan type                        : Progressive
Bits/(Pixel*Frame)               : 0.578
Stream size                      : 10.5 GiB (94%)
Color primaries                  : BT.709-5, BT.1361, IEC 61966-2-4, SMPTE RP177
Transfer characteristics         : BT.709-5, BT.1361
Matrix coefficients              : BT.709-5, BT.1361, IEC 61966-2-4 709, SMPTE RP177

Audio
ID                               : 4352 (0x1100)
Menu ID                          : 1 (0x1)
Format                           : DTS
Format/Info                      : Digital Theater Systems
Duration                         : 52mn 17s
Bit rate mode                    : Constant
Bit rate                         : 755 Kbps
Channel(s)                       : 2 channels
Channel positions                : L R
Sampling rate                    : 48.0 KHz
Resolution                       : 24 bits
Stream size                      : 282 MiB (2%)
Language                         : French

Text
ID                               : 4608 (0x1200)
Menu ID                          : 1 (0x1)
Format                           : PGS
Language                         : French


Dans les parametres, generic.mkv.h264.audiocopy, je mets audio en identique à la source, fréquence d'image identique à la source.

Merci d'avance !!
Belkin4000
 
Messages: 1096
Inscription: 05 Mar 2009 17:36
  • offline

Annonce

Message par Google » 23 Aoû 2010 13:39

Publicite

 
Encart supprimé pour les membres HCFR

Message » 23 Aoû 2010 16:17

peut etre que dvd fab ne comprend pas les 23.976 img/s
actarrius
 
Messages: 1026
Inscription: 08 Oct 2008 14:15
  • offline

Message » 23 Aoû 2010 16:55

Tu penses !? Ca serait étonnant !!
Il faudrait que je convertisse en 24p ?
Belkin4000
 
Messages: 1096
Inscription: 05 Mar 2009 17:36
  • offline

Message » 23 Aoû 2010 17:04

Essaie clownBD ! :D
974eric
 
Messages: 428
Inscription: 08 Mai 2007 16:00
  • offline

Message » 23 Aoû 2010 17:10

Il n'encode pas en mkv...
Belkin4000
 
Messages: 1096
Inscription: 05 Mar 2009 17:36
  • offline

Message » 23 Aoû 2010 17:52

essayes avec eac3to, moi j'ai converti tout mes hd dvd avec sans soucis
c'est un soft en ligne de commande alors si c'est trop austere por toi utilises un GUI en plus.
par exemple HD-DVD/Blu-Ray Stream Extractor :
http://forum.doom9.org/showthread.php?t=141829
pour plus d'infos sur eac3to c'est ici :
http://www.avsforum.com/avs-vb/showthread.php?t=1033822
Alastor2262
 
Messages: 306
Inscription: 02 Déc 2006 4:56
Localisation: Dubai
  • offline

Message » 23 Aoû 2010 19:18

Je viens d'essayer, mais on peut regler la compression ?
Belkin4000
 
Messages: 1096
Inscription: 05 Mar 2009 17:36
  • offline

Message » 24 Aoû 2010 2:02

Belkin4000 a écrit:Je viens d'essayer, mais on peut regler la compression ?

non pas de compression avec cettte methode tu va creer un mkv qui est une copie conforme de ton BD/HD DVD de depart.
j'ai oublie de te preciser qui te faudra utiliser mkvtoolnix pour creer ton mkv final video+son+chapitre+sous titre
http://www.bunkus.org/videotools/mkvtoolnix/win32/
Alastor2262
 
Messages: 306
Inscription: 02 Déc 2006 4:56
Localisation: Dubai
  • offline

Message » 24 Aoû 2010 8:28

Oui, je connais mkvtoolnix, pas de problème pour merger les fichiers... Par contre, j'aurais souhaité faire de la compression du mkv avant ;)
Belkin4000
 
Messages: 1096
Inscription: 05 Mar 2009 17:36
  • offline

Message » 24 Aoû 2010 14:02

Il y a aussi Total video converter hd avec lequel tu peux compresser tes fichiers en 720p, mais il te faut un bon cpu car c'est peut être très long.
974eric
 
Messages: 428
Inscription: 08 Mai 2007 16:00
  • offline

Message » 24 Aoû 2010 14:22

Test en cours ;) Merci.
Belkin4000
 
Messages: 1096
Inscription: 05 Mar 2009 17:36
  • offline

Message » 24 Aoû 2010 16:04

Super... Il plante... Il recréé une structure blu-ray (je ne vois vraiment pas pourquoi), et il plante ensuite...
Belkin4000
 
Messages: 1096
Inscription: 05 Mar 2009 17:36
  • offline

Message » 24 Aoû 2010 16:45

tu devrais essayer ça :
Xilisoft BluRay Ripper 5.2
actarrius
 
Messages: 1026
Inscription: 08 Oct 2008 14:15
  • offline

Message » 24 Aoû 2010 17:33

Désolé pour toi. Voici un lien où peut-être tu pourras trouver ce que tu cherches. http://www.emicsoft.com
974eric
 
Messages: 428
Inscription: 08 Mai 2007 16:00
  • offline

Message » 24 Aoû 2010 18:03

974eric a écrit:Désolé pour toi. Voici un lien où peut-être tu pourras trouver ce que tu cherches. http://www.emicsoft.com

Pour mac ? Arf, j'ai pas de mac :(
EDIT: ah non, j'ai rien dit :)
Belkin4000
 
Messages: 1096
Inscription: 05 Mar 2009 17:36
  • offline



Retourner vers Logiciel PC Home-cinéma

 
  • Articles en relation
    Dernier message