Modérateurs: Staff Home-Cinéma, Staff Juridique • Utilisateurs parcourant ce forum: Aucun utilisateur enregistré et 5 invités

Tout ce qui concerne les logiciels lié au HC sur ordinateur (PC, Mac, Linux...)
Règles du forum
Avant de poster, merci de prendre connaissance des règles du forum : à lire avant de poster

KMPlayer et qualité film HD

Message » 16 Nov 2009 17:52

Bonjour,

J'ai en ma possession un film HD 1080p au format .mkv que je lis avec KMPlayer (version 1435) sur un écran 1920x1200, mais je trouve que la qualité n'est pas au rendez-vous pour un film full HD. Il y a comme du grain, cela fait un aspect sablé.

D'autre part, quand je regarde les informations du fichier en appuyant sur la touche TAB, à coté de video c'est marquer MPEG-2, alors que dans les infos général du fichier c'est MPEG-4 :
General
Complete name : Harry Potter et le Prince de sang mêlé.mkv
Format : Matroska
File size : 10.9 GiB
Duration : 2h 33mn
Overall bit rate : 10.2 Mbps
Encoded date : UTC 2009-11-14 02:17:13
Writing application : mkvmerge v2.9.8
Writing library : libebml v0.7.7 + libmatroska v0.8.1
Video #6
ID : 6
Format : AVC
Format/Info : Advanced Video Codec
Format profile : High@L4.1
Format settings, CABAC : Yes
Format settings, ReFrames : 5 frames
Muxing mode : Container profile=Unknown@4.1
Codec ID : V_MPEG4/ISO/AVC
Duration : 2h 33mn
Bit rate : 8 907 Kbps
Nominal bit rate : 9 108 Kbps
Width : 1 920 pixels
Height : 800 pixels
Display aspect ratio : 2.40:1
Frame rate : 23.976 fps
Resolution : 24 bits
Colorimetry : 4:2:0
Scan type : Progressive
Bits/(Pixel*Frame) : 0.242
Stream size : 9.54 GiB (87%)
Writing library : x264 core 79 r1332 70f8869
Encoding settings : cabac=1 / ref=5 / deblock=1:0:0 / analyse=0x3:0x133 / me=umh / subme=7 / psy=1 / psy_rd=1.0:0.0 / mixed_ref=1 / me_range=16 / chroma_me=1 / trellis=1 / 8x8dct=1 / cqm=0 / deadzone=21,11 / chroma_qp_offset=-2 / threads=6 / nr=0 / decimate=1 / mbaff=0 / constrained_intra=0 / bframes=3 / b_pyramid=0 / b_adapt=1 / b_bias=0 / direct=1 / wpredb=1 / wpredp=2 / keyint=250 / keyint_min=25 / scenecut=40 / rc_lookahead=40 / rc=2pass / mbtree=1 / bitrate=9108 / ratetol=1.0 / qcomp=0.60 / qpmin=10 / qpmax=51 / qpstep=4 / cplxblur=20.0 / qblur=0.5 / ip_ratio=1.40 / aq=1:1.00
Language : French
Audio #1
ID : 1
Format : AC-3
Format/Info : Audio Coding 3
Codec ID : A_AC3
Duration : 2h 33mn
Bit rate mode : Constant
Bit rate : 640 Kbps
Channel(s) : 6 channels
Channel positions : Front: L C R, Surround: L R, LFE
Sampling rate : 48.0 KHz
Stream size : 703 MiB (6%)
Title : Ac3 640 Kbps
Language : French
Audio #2
ID : 2
Format : AC-3
Format/Info : Audio Coding 3
Codec ID : A_AC3
Duration : 2h 33mn
Bit rate mode : Constant
Bit rate : 448 Kbps
Channel(s) : 6 channels
Channel positions : Front: L C R, Surround: L R, LFE
Sampling rate : 48.0 KHz
Stream size : 492 MiB (4%)
Title : Ac3 448 Kbps
Language : French


Pouvez-vous m'éclaircir sur la situation et comment résoudre le problème de l'aspect granuleux en configurant KMPlayer ? Est-ce que le pack KAZ marchera sur la version 1435, car c'est marqué pour la version 1434 ?

merci
Labestiol88
 
Messages: 183
Inscription: 04 Nov 2009 19:39
  • offline

Message » 16 Nov 2009 22:42

Ca devrait surtout être marqué : harry potter et le prince de sang mêlé.m2ts :roll:
Je locke.

@+,
Xavier.
tobal
 
Messages: 6118
Inscription: 13 Sep 2001 2:00
Localisation: Niort
  • offline


Retourner vers Logiciel PC Home-cinéma

 
  • Articles en relation
    Dernier message