Modérateurs: Staff Multimédia, Staff Juridique • Utilisateurs parcourant ce forum: Aucun utilisateur enregistré et 8 invités

Musique enregistrée : BLURAY, CD & DVD musicaux, interprètes...

Les Concerts en Blu-ray

Message » 11 Mar 2012 12:22

coolpix33 a écrit:
GandalfLux a écrit:le topic récapitulatif des TEST ;) LooK ma signature ;)

EDIT : Genre là :

LE récapitulatif des TESTS (ici on regroupe tous les TESTs ;) )


C'est bien ce que je disais : il y a pas de récapitulatif des concerts BR hors classique .... dsl (c'est pas grave) :mdr:

:o :o

Attend je rêves comment ça il n'y a pas les concerts ???

La seul choses qui man,que au TOPIC regroupant TOUS les test , c'est les opéra et Classique.

Je les aient rajouter il y a très peut de temps mais en faite il n'y a qu'un personnes qui fait les post il à sont topics et apparemment il à décider de géré ça donc je lui laisse la tache volontiers ( et encore si il y a discutions dans ton topic je pense qu eje le reprendrais en mains).

Mais Sinon tous le reste y aient ;)
Avatar de l’utilisateur
Gandalflux
Membre HCFR
Membre HCFR
 
Messages: 45753
Inscription: 07 Avr 2008 23:03
Localisation: Luxembourg
  • offline

Annonce

Message par Google » 11 Mar 2012 12:22

 
 
Publicite

 
Encart supprimé pour les membres HCFR

Message » 11 Mar 2012 12:25

Topic à jour ;)
Avatar de l’utilisateur
Gandalflux
Membre HCFR
Membre HCFR
 
Messages: 45753
Inscription: 07 Avr 2008 23:03
Localisation: Luxembourg
  • offline

Message » 11 Mar 2012 18:03

GandalfLux a écrit: :o :o

Attend je rêves comment ça il n'y a pas les concerts ???

La seul choses qui man,que au TOPIC regroupant TOUS les test , c'est les opéra et Classique.


Bin disons que pour trouver le récap des concerts BR (hors classique) à la page 4 du topic "LE récapitulatif des TESTS" c'est pas forcément très intuitif ... :oldy:

Un petit lien : viewtopic.php?p=174895203#p174895203 dans la première page du topic ne ferait vraiment pas de mal :thks:
coolpix33
 
Messages: 290
Inscription: 22 Fév 2005 21:05
Localisation: Gironde
  • offline

Message » 11 Mar 2012 18:25

Il suffi de lire le 1er Post du Topic de référence ;)

Mais je te l'accord on peut aussi rajouter un lien ici ;)
Avatar de l’utilisateur
Gandalflux
Membre HCFR
Membre HCFR
 
Messages: 45753
Inscription: 07 Avr 2008 23:03
Localisation: Luxembourg
  • offline

Message » 15 Mar 2012 13:43

Salut,

Je viens de regarder le BR ci dessous.
Est ce que quelqu'un d'autre l'aurait vu car je constate un truc que je n'arrive pas a m'expliquer (j'y reviens plus bas).

Taylor Swift: Speak Now World Tour Live
Image

Coté technique, voici le MediaInfo du disque :
Code: Tout sélectionner
Disc Title:     SPEAK NOW LIVE
Disc Size:      19 972 318 079 bytes
Protection:     AACS
BD-Java:        No
BDInfo:         0.5.8

Notes:         

BDINFO HOME:
  Cinema Squid
    http://www.cinemasquid.com/blu-ray/tools/bdinfo

INCLUDES FORUMS REPORT FOR:
  AVS Forum Blu-ray Audio and Video Specifications Thread
    http://www.avsforum.com/avs-vb/showthread.php?t=1155731


********************
PLAYLIST: 00000.MPLS
********************

<--- BEGIN FORUMS PASTE --->
[code]
                                                                                                                Total   Video                                             
Title                                                           Codec   Length  Movie Size      Disc Size       Bitrate Bitrate Main Audio Track                          Secondary Audio Track
-----                                                           ------  ------- --------------  --------------  ------- ------- ------------------                        ---------------------
00000.MPLS                                                      AVC     2:09:26 18 501 636 096  19 972 318 079  19,06   15,97   LPCM 2.0 1536Kbps (48kHz/16-bit)          DD AC3 5.1 448Kbps
[/code]

[code]

DISC INFO:

Disc Title:     SPEAK NOW LIVE
Disc Size:      19 972 318 079 bytes
Protection:     AACS
BD-Java:        No
BDInfo:         0.5.8

PLAYLIST REPORT:

Name:                   00000.MPLS
Length:                 2:09:26.008 (h:m:s.ms)
Size:                   18 501 636 096 bytes
Total Bitrate:          19,06 Mbps

VIDEO:

Codec                   Bitrate             Description     
-----                   -------             -----------     
MPEG-4 AVC Video        15969 kbps          1080p / 23,976 fps / 16:9 / High Profile 4.1

AUDIO:

Codec                           Language        Bitrate         Description     
-----                           --------        -------         -----------     
LPCM Audio                      English         1536 kbps       2.0 / 48 kHz / 1536 kbps / 16-bit
Dolby Digital Audio             English         448 kbps        5.1 / 48 kHz / 448 kbps

FILES:

Name            Time In         Length          Size            Total Bitrate   
----            -------         ------          ----            -------------   
00031.M2TS      0:00:00.000     2:09:26.008     18 501 636 096  19 059         

CHAPTERS:

Number          Time In         Length          Avg Video Rate  Max 1-Sec Rate  Max 1-Sec Time  Max 5-Sec Rate  Max 5-Sec Time  Max 10Sec Rate  Max 10Sec Time  Avg Frame Size  Max Frame Size  Max Frame Time 
------          -------         ------          --------------  --------------  --------------  --------------  --------------  --------------  --------------  --------------  --------------  -------------- 
1               0:00:00.000     0:07:27.363     16 901 kbps     44 355 kbps     00:01:48.525    33 959 kbps     00:01:46.189    29 576 kbps     00:05:45.303    88 108 bytes    374 876 bytes   00:01:49.526   
2               0:07:27.363     0:04:18.967     19 596 kbps     44 524 kbps     00:11:23.849    36 841 kbps     00:07:31.826    34 322 kbps     00:07:31.868    102 165 bytes   363 060 bytes   00:07:35.621   
3               0:11:46.330     0:08:02.773     14 770 kbps     43 881 kbps     00:15:18.917    38 436 kbps     00:15:18.000    34 851 kbps     00:15:18.042    77 006 bytes    384 669 bytes   00:15:18.083   
4               0:19:49.104     0:08:12.074     12 147 kbps     39 740 kbps     00:26:01.476    31 212 kbps     00:27:16.635    26 187 kbps     00:27:16.635    63 329 bytes    390 739 bytes   00:26:02.102   
5               0:28:01.179     0:05:26.409     15 137 kbps     31 273 kbps     00:31:38.438    27 193 kbps     00:32:48.091    22 888 kbps     00:32:46.255    78 918 bytes    314 964 bytes   00:29:40.695   
6               0:33:27.588     0:07:43.254     13 308 kbps     42 394 kbps     00:34:04.292    32 219 kbps     00:34:03.541    24 487 kbps     00:34:03.124    69 383 bytes    320 292 bytes   00:38:21.257   
7               0:41:10.843     0:05:45.136     19 226 kbps     44 633 kbps     00:46:27.409    34 955 kbps     00:42:39.473    32 011 kbps     00:42:23.249    100 236 bytes   456 577 bytes   00:42:41.517   
8               0:46:55.979     0:08:09.030     16 952 kbps     40 570 kbps     00:51:05.937    36 505 kbps     00:50:17.472    34 330 kbps     00:50:18.140    88 378 bytes    469 092 bytes   00:50:19.558   
9               0:55:05.010     0:05:53.603     10 955 kbps     29 444 kbps     00:55:28.783    26 968 kbps     00:55:28.533    19 092 kbps     00:55:26.781    57 114 bytes    306 105 bytes   00:55:10.515   
10              1:00:58.613     0:09:10.258     11 852 kbps     31 009 kbps     01:08:53.045    25 664 kbps     01:08:52.128    20 712 kbps     01:08:50.876    61 791 bytes    303 133 bytes   01:07:26.208   
11              1:10:08.871     0:05:13.604     12 593 kbps     29 436 kbps     01:10:44.949    23 423 kbps     01:11:49.805    20 810 kbps     01:13:16.308    65 652 bytes    304 692 bytes   01:10:53.707   
12              1:15:22.476     0:07:39.959     17 516 kbps     40 405 kbps     01:20:01.004    34 271 kbps     01:20:00.086    31 716 kbps     01:19:55.665    91 319 bytes    330 800 bytes   01:21:39.769   
13              1:23:02.435     0:06:43.402     12 802 kbps     34 506 kbps     01:27:54.978    29 178 kbps     01:28:53.578    26 597 kbps     01:28:51.409    66 745 bytes    402 472 bytes   01:25:36.631   
14              1:29:45.838     0:08:59.121     19 682 kbps     44 425 kbps     01:32:35.091    38 251 kbps     01:32:56.988    36 737 kbps     01:32:55.820    102 613 bytes   471 422 bytes   01:32:26.916   
15              1:38:44.960     0:06:31.766     17 821 kbps     39 852 kbps     01:41:19.239    30 797 kbps     01:41:18.739    28 132 kbps     01:41:18.781    92 913 bytes    340 728 bytes   01:39:36.845   
16              1:45:16.727     0:08:03.649     19 632 kbps     45 138 kbps     01:53:03.818    37 546 kbps     01:53:00.690    33 682 kbps     01:46:32.886    102 353 bytes   428 512 bytes   01:47:43.165   
17              1:53:20.376     0:07:18.646     17 932 kbps     33 507 kbps     01:53:36.017    30 514 kbps     01:53:41.564    30 084 kbps     01:53:35.975    93 487 bytes    399 343 bytes   01:57:46.225   
18              2:00:39.023     0:08:46.984     18 440 kbps     42 978 kbps     02:05:11.629    36 710 kbps     02:05:10.002    34 207 kbps     02:05:29.104    96 144 bytes    390 106 bytes   02:04:12.736   

STREAM DIAGNOSTICS:

File            PID             Type            Codec           Language                Seconds                 Bitrate                 Bytes           Packets         
----            ---             ----            -----           --------                --------------          --------------          -------------   -----           
00031.M2TS      4113 (0x1011)   0x1B            AVC                                     7765,841                15 969                  15 501 489 349  84 356 419     
00031.M2TS      4352 (0x1100)   0x80            LPCM            eng (English)           7765,841                1 542                   1 497 286 728   9 319 212       
00031.M2TS      4353 (0x1101)   0x81            AC3             eng (English)           7765,841                448                     434 896 896     2 426 880       

[/code]
<---- END FORUMS PASTE ---->

QUICK SUMMARY:

Disc Title: SPEAK NOW LIVE
Disc Size: 19 972 318 079 bytes
Protection: AACS
BD-Java: No
Playlist: 00000.MPLS
Size: 18 501 636 096 bytes
Length: 2:09:26.008
Total Bitrate: 19,06 Mbps
Video: MPEG-4 AVC Video / 15969 kbps / 1080p / 23,976 fps / 16:9 / High Profile 4.1
Audio: English / LPCM Audio / 2.0 / 48 kHz / 1536 kbps / 16-bit
Audio: English / Dolby Digital Audio / 5.1 / 48 kHz / 448 kbps


********************
PLAYLIST: 00002.MPLS
********************

<--- BEGIN FORUMS PASTE --->
[code]
                                                                                                                Total   Video                                             
Title                                                           Codec   Length  Movie Size      Disc Size       Bitrate Bitrate Main Audio Track                          Secondary Audio Track
-----                                                           ------  ------- --------------  --------------  ------- ------- ------------------                        ---------------------
00002.MPLS                                                      AVC     0:05:09 617 650 176     19 972 318 079  15,94   14,98   DD AC3 2.0 192Kbps                       
[/code]

[code]

DISC INFO:

Disc Title:     SPEAK NOW LIVE
Disc Size:      19 972 318 079 bytes
Protection:     AACS
BD-Java:        No
BDInfo:         0.5.8

PLAYLIST REPORT:

Name:                   00002.MPLS
Length:                 0:05:09.892 (h:m:s.ms)
Size:                   617 650 176 bytes
Total Bitrate:          15,94 Mbps

VIDEO:

Codec                   Bitrate             Description     
-----                   -------             -----------     
MPEG-4 AVC Video        14981 kbps          1080p / 23,976 fps / 16:9 / High Profile 4.1

AUDIO:

Codec                           Language        Bitrate         Description     
-----                           --------        -------         -----------     
Dolby Digital Audio             English         192 kbps        2.0 / 48 kHz / 192 kbps / DN -4dB

FILES:

Name            Time In         Length          Size            Total Bitrate   
----            -------         ------          ----            -------------   
00000.M2TS      0:00:00.000     0:05:09.892     617 650 176     15 945         

CHAPTERS:

Number          Time In         Length          Avg Video Rate  Max 1-Sec Rate  Max 1-Sec Time  Max 5-Sec Rate  Max 5-Sec Time  Max 10Sec Rate  Max 10Sec Time  Avg Frame Size  Max Frame Size  Max Frame Time 
------          -------         ------          --------------  --------------  --------------  --------------  --------------  --------------  --------------  --------------  --------------  -------------- 
1               0:00:00.000     0:05:09.892     14 981 kbps     31 242 kbps     00:03:36.007    24 194 kbps     00:03:35.173    21 839 kbps     00:03:41.763    78 102 bytes    258 865 bytes   00:00:26.317   

STREAM DIAGNOSTICS:

File            PID             Type            Codec           Language                Seconds                 Bitrate                 Bytes           Packets         
----            ---             ----            -----           --------                --------------          --------------          -------------   -----           
00000.M2TS      4113 (0x1011)   0x1B            AVC                                     309,810                 14 985                  580 298 221     3 158 105       
00000.M2TS      4352 (0x1100)   0x81            AC3             eng (English)           309,810                 192                     7 438 080       48 425         

[/code]
<---- END FORUMS PASTE ---->

QUICK SUMMARY:

Disc Title: SPEAK NOW LIVE
Disc Size: 19 972 318 079 bytes
Protection: AACS
BD-Java: No
Playlist: 00002.MPLS
Size: 617 650 176 bytes
Length: 0:05:09.892
Total Bitrate: 15,94 Mbps
Video: MPEG-4 AVC Video / 14981 kbps / 1080p / 23,976 fps / 16:9 / High Profile 4.1
Audio: English / Dolby Digital Audio / 2.0 / 48 kHz / 192 kbps / DN -4dB


********************
PLAYLIST: 00001.MPLS
********************

<--- BEGIN FORUMS PASTE --->
[code]
                                                                                                                Total   Video                                             
Title                                                           Codec   Length  Movie Size      Disc Size       Bitrate Bitrate Main Audio Track                          Secondary Audio Track
-----                                                           ------  ------- --------------  --------------  ------- ------- ------------------                        ---------------------
00001.MPLS                                                      AVC     0:05:04 609 073 152     19 972 318 079  15,98   14,99   DD AC3 2.0 192Kbps                       
[/code]

[code]

DISC INFO:

Disc Title:     SPEAK NOW LIVE
Disc Size:      19 972 318 079 bytes
Protection:     AACS
BD-Java:        No
BDInfo:         0.5.8

PLAYLIST REPORT:

Name:                   00001.MPLS
Length:                 0:05:04.904 (h:m:s.ms)
Size:                   609 073 152 bytes
Total Bitrate:          15,98 Mbps

VIDEO:

Codec                   Bitrate             Description     
-----                   -------             -----------     
MPEG-4 AVC Video        14988 kbps          1080i / 29,970 fps / 16:9 / High Profile 4.1

AUDIO:

Codec                           Language        Bitrate         Description     
-----                           --------        -------         -----------     
Dolby Digital Audio             English         192 kbps        2.0 / 48 kHz / 192 kbps / DN -4dB

FILES:

Name            Time In         Length          Size            Total Bitrate   
----            -------         ------          ----            -------------   
00007.M2TS      0:00:00.000     0:05:04.904     609 073 152     15 981         

CHAPTERS:

Number          Time In         Length          Avg Video Rate  Max 1-Sec Rate  Max 1-Sec Time  Max 5-Sec Rate  Max 5-Sec Time  Max 10Sec Rate  Max 10Sec Time  Avg Frame Size  Max Frame Size  Max Frame Time 
------          -------         ------          --------------  --------------  --------------  --------------  --------------  --------------  --------------  --------------  --------------  -------------- 
1               0:00:00.000     0:05:04.904     14 988 kbps     26 204 kbps     00:00:53.053    25 408 kbps     00:00:49.049    21 139 kbps     00:03:38.918    62 512 bytes    187 892 bytes   00:04:29.235   

STREAM DIAGNOSTICS:

File            PID             Type            Codec           Language                Seconds                 Bitrate                 Bytes           Packets         
----            ---             ----            -----           --------                --------------          --------------          -------------   -----           
00007.M2TS      4113 (0x1011)   0x1B            AVC                                     304,838                 14 991                  571 233 031     3 114 386       
00007.M2TS      4352 (0x1100)   0x81            AC3             eng (English)           304,838                 192                     7 318 272       47 645         

[/code]
<---- END FORUMS PASTE ---->

QUICK SUMMARY:

Disc Title: SPEAK NOW LIVE
Disc Size: 19 972 318 079 bytes
Protection: AACS
BD-Java: No
Playlist: 00001.MPLS
Size: 609 073 152 bytes
Length: 0:05:04.904
Total Bitrate: 15,98 Mbps
Video: MPEG-4 AVC Video / 14988 kbps / 1080i / 29,970 fps / 16:9 / High Profile 4.1
Audio: English / Dolby Digital Audio / 2.0 / 48 kHz / 192 kbps / DN -4dB



Voici mon avis :

Le concert :
Je ne connaissait pas cette artiste il y a peu, je ne savais pas trop a quoi m'attendre.
C'est un beau spectacle de 2H10 très agréable a regarder.
Et c'est 2H10 de musique (je dis cela car j'ai aussi le BR d'Adele avec un MAX de blabla).
Coté mise en scène et éclairage, on est tout de même un ou 2 cran en dessous du Funhouse Tour de Pink.
J'ai l'impression que l'artiste est assez "proche" de ses fans. On sent quelle n'a pas pris la "grosse tête" de certains.

L'image :
Je préfère ne pas donner de note car je suis malvoyant (elle ne serait donc pas objective).
Je préfère dire simplement ce que je ressent. L'image est bonne mais sans plus pour un BR.
On sens tout de même qu'on a pas a faire a un DVD.
La précision est assez bonne mais les couleurs saturent un peu.
Il faut dire que certaines prises de vues sont "étranges" car captés au milieu des spectateurs (ça bouge beaucoup donc).

Le son :
C'est la que le bas blesse.
Mais ou est l'audio HD ? :evil:
Oui, vous ne rêvez pas, c'est un BR de fin Novembre 2011 sans piste audio HD.
C'est déjà un comble mais c'est pire pour un concert (surtout un concert récent).
Bref, on a droit à une piste Dolby Digital 5.1 et une piste PCM 2.0
Et c'est là que j'ai le soucis évoqué plus haut.
A la lecture de la piste DD, ma centrale est aphone et je ne comprends pas d'ou cela vient car le peu d'avis que j'ai lu sur le NET a propos de ce BR ne mentionnent pas ce point.
Malgré cela je la préfère à la piste PCM (sauf à l’écoute au casque ou c'est l'inverse).

Le détail qui tue :
Un spectateur qui filme le concert avec... un iPad :o
squyzz
 
Messages: 1231
Inscription: 21 Juin 2008 10:26

Message » 17 Mar 2012 19:49

je te remercie Squyzzz pour ton CR !

sur la version que j'ai (téléchargée sur l'istore) je l'ai pas là sous la main pour vous donner le codec utilisé etc etc
mais ce que je peux confirmer : c'est l'étrange choix de réalisation qui provoque une certaine frustration, je m'explique
prenez l'exemple de this is it, et bien là on a un concert avec de belle images nettes, et bien définies puis on bascule à un plan en contre plongée avec un effet vidéo
complètement frustrant on croirait regarder les vidéos de spectateurs sur youtube, avec une image complètement dénaturée ou saturée et instable(c'est à ce point là sur la version istore...)
j'attends de voir en BD ce que ça peut donner également car les effets lumineux / pyrotechniques peuvent être sympa en HD .

et oui pour le son c'est bel et bien scandaleux ...

après pour le concert en lui même, étant fan de la personne j'aurai du malk à être impartial, mais oui le concert n'a que très peu de temps mort.
une mise en scène de bonne qualité, des artistes bien présents sur scènes à l'image du fun house tour (mais un cran en dessous tout de même)
en y mettant les moyens on aurait pu avoir une sacrée galette, mais après le public visé par l'artiste n'est pas forcément audiophile / accroc de qualité HD / pointilleux à en mourir / fan de BD de the police lol

m'enfin pour ceux qui aiment l'artiste les 2 heures défileront !
ashley_38
 
Messages: 97
Inscription: 08 Jan 2011 20:06
  • offline

Message » 18 Mar 2012 1:22

Salut,
Je viens de regarder le BR ci dessous.

Kaiser Chiefs: Live at Elland Road
Image

Coté technique, voici le MediaInfo du disque :
Code: Tout sélectionner
Disc Title:     KAISER CHIEFS
Disc Size:      38 183 514 792 bytes
Protection:     AACS
BD-Java:        No
BDInfo:         0.5.8

Notes:         

BDINFO HOME:
  Cinema Squid
    http://www.cinemasquid.com/blu-ray/tools/bdinfo

INCLUDES FORUMS REPORT FOR:
  AVS Forum Blu-ray Audio and Video Specifications Thread
    http://www.avsforum.com/avs-vb/showthread.php?t=1155731


********************
PLAYLIST: 00000.MPLS
********************

<--- BEGIN FORUMS PASTE --->
[code]
                                                                                                                Total   Video                                             
Title                                                           Codec   Length  Movie Size      Disc Size       Bitrate Bitrate Main Audio Track                          Secondary Audio Track
-----                                                           ------  ------- --------------  --------------  ------- ------- ------------------                        ---------------------
00000.MPLS                                                      AVC     1:24:34 28 059 303 936  38 183 514 792  44,24   28,97   LPCM 2.0 4608Kbps (96kHz/24-bit)          DTS-HD Master 5.1 8407Kbps (96kHz/24-bit)
[/code]

[code]

DISC INFO:

Disc Title:     KAISER CHIEFS
Disc Size:      38 183 514 792 bytes
Protection:     AACS
BD-Java:        No
BDInfo:         0.5.8

PLAYLIST REPORT:

Name:                   00000.MPLS
Length:                 1:24:34.502 (h:m:s.ms)
Size:                   28 059 303 936 bytes
Total Bitrate:          44,24 Mbps

VIDEO:

Codec                   Bitrate             Description     
-----                   -------             -----------     
MPEG-4 AVC Video        28971 kbps          1080i / 29,970 fps / 16:9 / High Profile 4.1

AUDIO:

Codec                           Language        Bitrate         Description     
-----                           --------        -------         -----------     
LPCM Audio                      English         4608 kbps       2.0 / 96 kHz / 4608 kbps / 24-bit
DTS-HD Master Audio             English         8407 kbps       5.1 / 96 kHz / 8407 kbps / 24-bit (DTS Core: 6.1 / 48 kHz / 1509 kbps / 24-bit)

FILES:

Name            Time In         Length          Size            Total Bitrate   
----            -------         ------          ----            -------------   
00000.M2TS      0:00:00.000     1:24:34.002     28 059 279 360  44 240         
00004.M2TS      1:24:34.002     0:00:00.500     24 576          393             

CHAPTERS:

Number          Time In         Length          Avg Video Rate  Max 1-Sec Rate  Max 1-Sec Time  Max 5-Sec Rate  Max 5-Sec Time  Max 10Sec Rate  Max 10Sec Time  Avg Frame Size  Max Frame Size  Max Frame Time 
------          -------         ------          --------------  --------------  --------------  --------------  --------------  --------------  --------------  --------------  --------------  -------------- 
1               0:00:00.000     0:01:41.835     24 202 kbps     37 665 kbps     00:01:16.509    35 867 kbps     00:01:11.838    33 322 kbps     00:01:09.469    100 911 bytes   342 876 bytes   00:01:09.502   
2               0:01:41.835     0:02:43.930     29 510 kbps     31 856 kbps     00:04:06.779    30 600 kbps     00:03:28.041    30 225 kbps     00:03:01.214    123 079 bytes   230 924 bytes   00:04:06.813   
3               0:04:25.765     0:04:27.967     29 513 kbps     31 347 kbps     00:08:36.682    30 657 kbps     00:05:02.835    30 464 kbps     00:05:02.935    123 095 bytes   186 949 bytes   00:08:48.761   
4               0:08:53.733     0:03:46.859     29 370 kbps     31 382 kbps     00:11:56.749    30 480 kbps     00:09:53.492    30 237 kbps     00:11:56.749    122 498 bytes   215 564 bytes   00:11:57.349   
5               0:12:40.593     0:04:35.842     29 421 kbps     31 311 kbps     00:16:19.211    30 513 kbps     00:13:56.569    30 153 kbps     00:15:02.935    122 711 bytes   231 857 bytes   00:17:12.631   
6               0:17:16.435     0:02:54.974     29 422 kbps     31 255 kbps     00:18:42.654    30 517 kbps     00:18:47.259    30 170 kbps     00:18:14.693    122 713 bytes   212 185 bytes   00:20:09.808   
7               0:20:11.410     0:03:49.062     29 391 kbps     31 899 kbps     00:20:14.413    30 647 kbps     00:20:12.077    30 263 kbps     00:22:28.847    122 583 bytes   240 074 bytes   00:20:13.812   
8               0:24:00.472     0:03:29.943     29 369 kbps     31 609 kbps     00:27:16.134    30 518 kbps     00:25:25.223    30 035 kbps     00:24:00.739    122 494 bytes   214 131 bytes   00:27:04.356   
9               0:27:30.415     0:04:11.217     29 396 kbps     31 625 kbps     00:30:56.020    30 647 kbps     00:30:51.916    30 426 kbps     00:28:53.064    122 604 bytes   250 684 bytes   00:27:33.618   
10              0:31:41.633     0:03:10.657     29 355 kbps     31 563 kbps     00:34:28.032    30 566 kbps     00:31:48.539    30 252 kbps     00:31:43.968    122 433 bytes   207 964 bytes   00:34:20.825   
11              0:34:52.290     0:04:36.776     29 243 kbps     31 977 kbps     00:37:56.941    30 705 kbps     00:37:56.140    30 456 kbps     00:35:25.022    121 970 bytes   260 811 bytes   00:37:56.240   
12              0:39:29.066     0:04:23.496     29 454 kbps     32 453 kbps     00:39:38.876    30 634 kbps     00:40:00.664    30 383 kbps     00:40:02.266    122 846 bytes   334 974 bytes   00:39:37.375   
13              0:43:52.563     0:03:53.633     29 029 kbps     31 987 kbps     00:44:12.282    30 521 kbps     00:44:08.712    29 975 kbps     00:45:27.057    121 077 bytes   247 813 bytes   00:44:12.383   
14              0:47:46.196     0:10:49.215     29 337 kbps     31 751 kbps     00:50:00.897    30 598 kbps     00:49:45.782    30 367 kbps     00:48:10.654    122 362 bytes   247 219 bytes   00:50:01.732   
15              0:58:35.411     0:06:51.677     29 356 kbps     32 081 kbps     00:59:43.913    30 847 kbps     01:04:38.674    30 513 kbps     01:04:37.073    122 439 bytes   303 795 bytes   01:04:43.412   
16              1:05:27.089     0:02:53.907     28 944 kbps     34 626 kbps     01:06:44.100    31 032 kbps     01:06:35.858    30 495 kbps     01:06:35.091    120 722 bytes   375 575 bytes   01:06:13.202   
17              1:08:20.996     0:04:09.782     28 792 kbps     33 372 kbps     01:09:40.843    30 369 kbps     01:10:59.455    30 038 kbps     01:10:54.416    120 085 bytes   374 359 bytes   01:09:42.611   
18              1:12:30.779     0:03:26.973     28 847 kbps     31 901 kbps     01:13:05.981    30 445 kbps     01:13:47.589    30 087 kbps     01:15:03.966    120 317 bytes   363 985 bytes   01:15:55.350   
19              1:15:57.753     0:07:57.944     28 882 kbps     35 558 kbps     01:16:19.708    32 255 kbps     01:16:18.674    30 691 kbps     01:16:13.669    120 462 bytes   433 524 bytes   01:16:21.877   
20              1:23:55.697     0:00:38.805     5 932 kbps      12 895 kbps     01:24:05.273    11 791 kbps     01:24:04.472    11 682 kbps     01:24:05.106    24 763 bytes    100 352 bytes   01:24:06.908   

STREAM DIAGNOSTICS:

File            PID             Type            Codec           Language                Seconds                 Bitrate                 Bytes           Packets         
----            ---             ----            -----           --------                --------------          --------------          -------------   -----           
00000.M2TS      4113 (0x1011)   0x1B            AVC                                     5073,936                28 975                  18 376 932 116  99 964 303     
00000.M2TS      4352 (0x1100)   0x80            LPCM            eng (English)           5073,936                4 614                   2 926 293 860   16 234 640     
00000.M2TS      4353 (0x1101)   0x86            DTS-HD MA       eng (English)           5073,936                8 408                   5 332 700 936   29 773 149     
00004.M2TS      4113 (0x1011)   0x1B            AVC                                     0,400                   283                     14 159          84             

[/code]
<---- END FORUMS PASTE ---->

QUICK SUMMARY:

Disc Title: KAISER CHIEFS
Disc Size: 38 183 514 792 bytes
Protection: AACS
BD-Java: No
Playlist: 00000.MPLS
Size: 28 059 303 936 bytes
Length: 1:24:34.502
Total Bitrate: 44,24 Mbps
Video: MPEG-4 AVC Video / 28971 kbps / 1080i / 29,970 fps / 16:9 / High Profile 4.1
Audio: English / LPCM Audio / 2.0 / 96 kHz / 4608 kbps / 24-bit
Audio: English / DTS-HD Master Audio / 5.1 / 96 kHz / 8407 kbps / 24-bit (DTS Core: 6.1 / 48 kHz / 1509 kbps / 24-bit)


********************
PLAYLIST: 00001.MPLS
********************

<--- BEGIN FORUMS PASTE --->
[code]
                                                                                                                Total   Video                                             
Title                                                           Codec   Length  Movie Size      Disc Size       Bitrate Bitrate Main Audio Track                          Secondary Audio Track
-----                                                           ------  ------- --------------  --------------  ------- ------- ------------------                        ---------------------
00001.MPLS                                                      AVC     0:26:36 8 780 507 136   38 183 514 792  43,99   28,86   LPCM 2.0 4608Kbps (96kHz/24-bit)          DTS-HD Master 5.1 8247Kbps (96kHz/24-bit)
[/code]

[code]

DISC INFO:

Disc Title:     KAISER CHIEFS
Disc Size:      38 183 514 792 bytes
Protection:     AACS
BD-Java:        No
BDInfo:         0.5.8

PLAYLIST REPORT:

Name:                   00001.MPLS
Length:                 0:26:36.995 (h:m:s.ms)
Size:                   8 780 507 136 bytes
Total Bitrate:          43,99 Mbps

VIDEO:

Codec                   Bitrate             Description     
-----                   -------             -----------     
MPEG-4 AVC Video        28865 kbps          1080i / 29,970 fps / 16:9 / High Profile 4.1

AUDIO:

Codec                           Language        Bitrate         Description     
-----                           --------        -------         -----------     
LPCM Audio                      English         4608 kbps       2.0 / 96 kHz / 4608 kbps / 24-bit
DTS-HD Master Audio             English         8247 kbps       5.1 / 96 kHz / 8247 kbps / 24-bit (DTS Core: 6.1 / 48 kHz / 1509 kbps / 24-bit)

FILES:

Name            Time In         Length          Size            Total Bitrate   
----            -------         ------          ----            -------------   
00001.M2TS      0:00:00.000     0:26:36.494     8 780 482 560   43 999         
00004.M2TS      0:26:36.494     0:00:00.500     24 576          393             

CHAPTERS:

Number          Time In         Length          Avg Video Rate  Max 1-Sec Rate  Max 1-Sec Time  Max 5-Sec Rate  Max 5-Sec Time  Max 10Sec Rate  Max 10Sec Time  Avg Frame Size  Max Frame Size  Max Frame Time 
------          -------         ------          --------------  --------------  --------------  --------------  --------------  --------------  --------------  --------------  --------------  -------------- 
1               0:00:00.000     0:00:41.708     27 239 kbps     45 035 kbps     00:00:03.036    31 053 kbps     00:00:23.189    30 318 kbps     00:00:23.156    113 520 bytes   352 221 bytes   00:00:03.370   
2               0:00:41.708     0:04:32.138     28 895 kbps     49 320 kbps     00:03:46.526    32 422 kbps     00:04:17.223    31 337 kbps     00:04:17.123    120 517 bytes   526 470 bytes   00:03:46.593   
3               0:05:13.846     0:03:58.838     28 975 kbps     41 763 kbps     00:05:56.989    31 939 kbps     00:06:28.121    30 661 kbps     00:06:28.054    120 850 bytes   311 138 bytes   00:07:05.258   
4               0:09:12.685     0:04:29.669     28 501 kbps     42 453 kbps     00:09:24.897    32 449 kbps     00:09:25.564    30 753 kbps     00:09:25.531    118 875 bytes   413 317 bytes   00:11:49.475   
5               0:13:42.354     0:06:25.385     29 174 kbps     46 228 kbps     00:15:11.577    33 777 kbps     00:17:32.217    31 763 kbps     00:17:32.618    121 678 bytes   371 776 bytes   00:19:15.754   
6               0:20:07.739     0:03:52.498     28 913 kbps     48 013 kbps     00:21:40.999    32 745 kbps     00:22:39.891    31 242 kbps     00:22:30.682    120 593 bytes   385 964 bytes   00:23:47.125   
7               0:24:00.238     0:02:36.756     28 868 kbps     36 523 kbps     00:24:35.874    31 908 kbps     00:25:21.052    30 783 kbps     00:25:14.379    120 431 bytes   272 899 bytes   00:25:09.808   

STREAM DIAGNOSTICS:

File            PID             Type            Codec           Language                Seconds                 Bitrate                 Bytes           Packets         
----            ---             ----            -----           --------                --------------          --------------          -------------   -----           
00001.M2TS      4113 (0x1011)   0x1B            AVC                                     1596,395                28 875                  5 762 063 822   31 367 791     
00001.M2TS      4352 (0x1100)   0x80            LPCM            eng (English)           1596,395                4 619                   921 743 704     5 113 696       
00001.M2TS      4353 (0x1101)   0x86            DTS-HD MA       eng (English)           1596,395                8 250                   1 646 275 328   9 196 632       
00004.M2TS      4113 (0x1011)   0x1B            AVC                                     0,400                   283                     14 159          84             

[/code]
<---- END FORUMS PASTE ---->

QUICK SUMMARY:

Disc Title: KAISER CHIEFS
Disc Size: 38 183 514 792 bytes
Protection: AACS
BD-Java: No
Playlist: 00001.MPLS
Size: 8 780 507 136 bytes
Length: 0:26:36.995
Total Bitrate: 43,99 Mbps
Video: MPEG-4 AVC Video / 28865 kbps / 1080i / 29,970 fps / 16:9 / High Profile 4.1
Audio: English / LPCM Audio / 2.0 / 96 kHz / 4608 kbps / 24-bit
Audio: English / DTS-HD Master Audio / 5.1 / 96 kHz / 8247 kbps / 24-bit (DTS Core: 6.1 / 48 kHz / 1509 kbps / 24-bit)


********************
PLAYLIST: 00002.MPLS
********************

<--- BEGIN FORUMS PASTE --->
[code]
                                                                                                                Total   Video                                             
Title                                                           Codec   Length  Movie Size      Disc Size       Bitrate Bitrate Main Audio Track                          Secondary Audio Track
-----                                                           ------  ------- --------------  --------------  ------- ------- ------------------                        ---------------------
00002.MPLS                                                      AVC     0:00:29 32 919 552      38 183 514 792  8,91    8,28    DD AC3 5.1 448Kbps                       
[/code]

[code]

DISC INFO:

Disc Title:     KAISER CHIEFS
Disc Size:      38 183 514 792 bytes
Protection:     AACS
BD-Java:        No
BDInfo:         0.5.8

PLAYLIST REPORT:

Name:                   00002.MPLS
Length:                 0:00:29.562 (h:m:s.ms)
Size:                   32 919 552 bytes
Total Bitrate:          8,91 Mbps

VIDEO:

Codec                   Bitrate             Description     
-----                   -------             -----------     
MPEG-4 AVC Video        8283 kbps           1080i / 29,970 fps / 16:9 / High Profile 4.1

AUDIO:

Codec                           Language        Bitrate         Description     
-----                           --------        -------         -----------     
Dolby Digital Audio             English         448 kbps        5.1 / 48 kHz / 448 kbps

FILES:

Name            Time In         Length          Size            Total Bitrate   
----            -------         ------          ----            -------------   
00012.M2TS      0:00:00.000     0:00:07.006     3 766 272       4 300           
00005.M2TS      0:00:07.006     0:00:06.005     1 290 240       1 719           
00006.M2TS      0:00:13.012     0:00:11.044     26 118 144      18 919         
00007.M2TS      0:00:24.057     0:00:05.004     1 720 320       2 750           
00004.M2TS      0:00:29.062     0:00:00.500     24 576          393             

CHAPTERS:

Number          Time In         Length          Avg Video Rate  Max 1-Sec Rate  Max 1-Sec Time  Max 5-Sec Rate  Max 5-Sec Time  Max 10Sec Rate  Max 10Sec Time  Avg Frame Size  Max Frame Size  Max Frame Time 
------          -------         ------          --------------  --------------  --------------  --------------  --------------  --------------  --------------  --------------  --------------  -------------- 
1               0:00:00.000     0:00:29.562     8 283 kbps      29 234 kbps     00:00:18.418    24 785 kbps     00:00:14.347    19 393 kbps     00:00:13.813    34 548 bytes    358 200 bytes   00:00:15.115   

STREAM DIAGNOSTICS:

File            PID             Type            Codec           Language                Seconds                 Bitrate                 Bytes           Packets         
----            ---             ----            -----           --------                --------------          --------------          -------------   -----           
00012.M2TS      4113 (0x1011)   0x1B            AVC                                     6,874                   4 120                   3 540 213       19 373         
00005.M2TS      4113 (0x1011)   0x1B            AVC                                     5,906                   1 589                   1 172 775       6 500           
00006.M2TS      4113 (0x1011)   0x1B            AVC                                     10,978                  17 697                  24 284 174      132 170         
00006.M2TS      4352 (0x1100)   0x81            AC3             eng (English)           10,978                  452                     620 032         3 460           
00007.M2TS      4113 (0x1011)   0x1B            AVC                                     4,905                   2 606                   1 597 984       8 774           
00004.M2TS      4113 (0x1011)   0x1B            AVC                                     0,400                   283                     14 159          84             

[/code]
<---- END FORUMS PASTE ---->

QUICK SUMMARY:

Disc Title: KAISER CHIEFS
Disc Size: 38 183 514 792 bytes
Protection: AACS
BD-Java: No
Playlist: 00002.MPLS
Size: 32 919 552 bytes
Length: 0:00:29.562
Total Bitrate: 8,91 Mbps
Video: MPEG-4 AVC Video / 8283 kbps / 1080i / 29,970 fps / 16:9 / High Profile 4.1
Audio: English / Dolby Digital Audio / 5.1 / 48 kHz / 448 kbps


********************
PLAYLIST: 00003.MPLS
********************

<--- BEGIN FORUMS PASTE --->
[code]
                                                                                                                Total   Video                                             
Title                                                           Codec   Length  Movie Size      Disc Size       Bitrate Bitrate Main Audio Track                          Secondary Audio Track
-----                                                           ------  ------- --------------  --------------  ------- ------- ------------------                        ---------------------
00003.MPLS                                                      MPEG-2  0:03:05 682 911 744     38 183 514 792  29,53   25,87   LPCM 2.0 2304Kbps (48kHz/24-bit)         
[/code]

[code]

DISC INFO:

Disc Title:     KAISER CHIEFS
Disc Size:      38 183 514 792 bytes
Protection:     AACS
BD-Java:        No
BDInfo:         0.5.8

PLAYLIST REPORT:

Name:                   00003.MPLS
Length:                 0:03:05.018 (h:m:s.ms)
Size:                   682 911 744 bytes
Total Bitrate:          29,53 Mbps

VIDEO:

Codec                   Bitrate             Description     
-----                   -------             -----------     
MPEG-2 Video            25874 kbps          1080i / 29,970 fps / 16:9

AUDIO:

Codec                           Language        Bitrate         Description     
-----                           --------        -------         -----------     
LPCM Audio                      English         2304 kbps       2.0 / 48 kHz / 2304 kbps / 24-bit

FILES:

Name            Time In         Length          Size            Total Bitrate   
----            -------         ------          ----            -------------   
00008.M2TS      0:00:00.000     0:03:04.517     682 856 448     29 606         
00009.M2TS      0:03:04.517     0:00:00.500     55 296          884             

CHAPTERS:

Number          Time In         Length          Avg Video Rate  Max 1-Sec Rate  Max 1-Sec Time  Max 5-Sec Rate  Max 5-Sec Time  Max 10Sec Rate  Max 10Sec Time  Avg Frame Size  Max Frame Size  Max Frame Time 
------          -------         ------          --------------  --------------  --------------  --------------  --------------  --------------  --------------  --------------  --------------  -------------- 
1               0:00:00.000     0:03:05.018     25 874 kbps     37 828 kbps     00:02:11.898    35 137 kbps     00:02:39.492    34 490 kbps     00:01:40.099    107 917 bytes   419 536 bytes   00:02:12.031   

STREAM DIAGNOSTICS:

File            PID             Type            Codec           Language                Seconds                 Bitrate                 Bytes           Packets         
----            ---             ----            -----           --------                --------------          --------------          -------------   -----           
00008.M2TS      4113 (0x1011)   0x02            MPEG-2                                  184,418                 25 956                  598 349 898     3 255 118       
00008.M2TS      4352 (0x1100)   0x80            LPCM            eng (English)           184,418                 2 312                   53 289 376      295 232         
00009.M2TS      4113 (0x1011)   0x02            MPEG-2                                  0,400                   963                     48 183          266             

[/code]
<---- END FORUMS PASTE ---->

QUICK SUMMARY:

Disc Title: KAISER CHIEFS
Disc Size: 38 183 514 792 bytes
Protection: AACS
BD-Java: No
Playlist: 00003.MPLS
Size: 682 911 744 bytes
Length: 0:03:05.018
Total Bitrate: 29,53 Mbps
Video: MPEG-2 Video / 25874 kbps / 1080i / 29,970 fps / 16:9
Audio: English / LPCM Audio / 2.0 / 48 kHz / 2304 kbps / 24-bit


********************
PLAYLIST: 00005.MPLS
********************

<--- BEGIN FORUMS PASTE --->
[code]
                                                                                                                Total   Video                                             
Title                                                           Codec   Length  Movie Size      Disc Size       Bitrate Bitrate Main Audio Track                          Secondary Audio Track
-----                                                           ------  ------- --------------  --------------  ------- ------- ------------------                        ---------------------
00005.MPLS                                                      AVC     0:02:14 607 488 000     38 183 514 792  36,17   31,05   LPCM 2.0 1536Kbps (48kHz/16-bit)          LPCM 2.0 1536Kbps (48kHz/16-bit)
[/code]

[code]

DISC INFO:

Disc Title:     KAISER CHIEFS
Disc Size:      38 183 514 792 bytes
Protection:     AACS
BD-Java:        No
BDInfo:         0.5.8

PLAYLIST REPORT:

Name:                   00005.MPLS
Length:                 0:02:14.367 (h:m:s.ms)
Size:                   607 488 000 bytes
Total Bitrate:          36,17 Mbps

VIDEO:

Codec                   Bitrate             Description     
-----                   -------             -----------     
MPEG-4 AVC Video        31054 kbps          1080i / 29,970 fps / 16:9 / High Profile 4.1

AUDIO:

Codec                           Language        Bitrate         Description     
-----                           --------        -------         -----------     
LPCM Audio                      English         1536 kbps       2.0 / 48 kHz / 1536 kbps / 16-bit
LPCM Audio                      English         1536 kbps       2.0 / 48 kHz / 1536 kbps / 16-bit

FILES:

Name            Time In         Length          Size            Total Bitrate   
----            -------         ------          ----            -------------   
00010.M2TS      0:00:00.000     0:02:14.367     607 488 000     36 169         

CHAPTERS:

Number          Time In         Length          Avg Video Rate  Max 1-Sec Rate  Max 1-Sec Time  Max 5-Sec Rate  Max 5-Sec Time  Max 10Sec Rate  Max 10Sec Time  Avg Frame Size  Max Frame Size  Max Frame Time 
------          -------         ------          --------------  --------------  --------------  --------------  --------------  --------------  --------------  --------------  --------------  -------------- 
1               0:00:00.000     0:02:14.367     31 054 kbps     44 870 kbps     00:00:20.086    36 074 kbps     00:01:04.330    35 242 kbps     00:01:04.297    129 521 bytes   502 294 bytes   00:00:20.520   

STREAM DIAGNOSTICS:

File            PID             Type            Codec           Language                Seconds                 Bitrate                 Bytes           Packets         
----            ---             ----            -----           --------                --------------          --------------          -------------   -----           
00010.M2TS      4113 (0x1011)   0x1B            AVC                                     134,267                 31 077                  521 579 587     2 837 065       
00010.M2TS      4352 (0x1100)   0x80            LPCM            eng (English)           134,267                 1 543                   25 899 788      161 202         
00010.M2TS      4353 (0x1101)   0x80            LPCM            eng (English)           134,267                 1 543                   25 899 788      161 202         

[/code]
<---- END FORUMS PASTE ---->

QUICK SUMMARY:

Disc Title: KAISER CHIEFS
Disc Size: 38 183 514 792 bytes
Protection: AACS
BD-Java: No
Playlist: 00005.MPLS
Size: 607 488 000 bytes
Length: 0:02:14.367
Total Bitrate: 36,17 Mbps
Video: MPEG-4 AVC Video / 31054 kbps / 1080i / 29,970 fps / 16:9 / High Profile 4.1
Audio: English / LPCM Audio / 2.0 / 48 kHz / 1536 kbps / 16-bit
Audio: English / LPCM Audio / 2.0 / 48 kHz / 1536 kbps / 16-bit



Voici mon avis :

Le concert :
Je ne connaissait le groupe que de nom. On m'a prête ce BR et je me suis dit qu'avant de le rendre je devrai peut être le regarder.
Ce concert à été filmé dans le stade de Leeds (les amateurs de foot le reconnaîtront peut être).
J'ai passé un bon moment et finalement je connaissait 3 chansons.
Niveau "spectacle" c'est pas terrible. OK me direz vous, si je voulais voir un show j'aurai du regarder Kylie Minogue. Mais j'estime qu'il devrait tout de même y avoir un "minimum syndical".
C'est bien la 1ère fois que je vois un guitariste (surtout d'un groupe de rock) inerte ; à croire qu'il attendait les démineurs.
Heureusement que le chanteur (en costard) est une pile électrique à mi chemin entre Axl Rose et Claude François ;-)

L'image :
Je préfère ne pas donner de note car je suis malvoyant (elle ne serait donc pas objective).
Aie aie aie, qu'est ce que ça bouge ;-)
L'image est d'un bon niveau mais on a pas trop le temps de l'étudier.
La seule solution pour scruter l'image et de faire une pause.
Avez vous vu le film 127 Heures ? Et bien ce concert à été monté de la même manière.
Personnellement j'aime beaucoup, mais je sais que c'est loin d'être le cas de tout le monde.

Le son :
Un sans faute pour la piste DTS HD
Ça aurait peut être mérité une plus grande sollicitation des surround (mais c'est une histoire de goûts)

Le détail qui tue :
Ya encore des artistes qui utilisent des câbles.
Chapeau au chanteur qui n'a cessé de bouger dans tous les sens et qui a réussi à ne pas se prendre les pieds dans le fil de son micro.

Au générique de fin... Oups, j'en ai trop dit :hehe:


OH SURPRISE (enfin, si comme moi vous avez tendance à cliquer sur OK sans lire le menu après avoir insérer le BR :zen: ).

Si on est patient et que l'on attends la fin du générique, ça enchaîne tout de suite sur... un 2ème concert :-)
On passe alors du stade de Leeds à une salle plus intimiste (genre BBC Sessions).
Le groupe est accompané par l'orchestre de David Arnold

Côté image, il faut être clair, je ne suis pas sur qu'ils pensaient à mettre ça sur un BR.
C'est joli, mais le côté sombre et peu éclairé de la salle allié à l'ambiance "fumoir" n'aide pas.
Mais la n'est pas vraiment l'intérêt.

Modern Way :
C'est très bon au début mais des que le rifts de guitare et la batterie entent en action l'orchestre est comme "asphyxié". Seules les trompettes arrivent à se faire entendre.
Jet (de Paul McCartney & The Wings)
Le résultat est déjà plus probant.
Il y a une sorte d'harmonie (voir même de symbiose) entre le groupe et l'orchestre ou aucun instrument n'est mis de côté.
Ruby
Du grand art en acoustique.
Un régal pour les oreilles
The angry mob
La point d'orchestre, au début de la chanson tout du moins.
Mais dès le refrain, le groupe est rejoint par une troupe de percussionniste et encore une fois le résultat est excellent.
Oh, my God
Un final surprenant
squyzz
 
Messages: 1231
Inscription: 21 Juin 2008 10:26

Message » 18 Mar 2012 14:12

Topic à jour ;)
Avatar de l’utilisateur
Gandalflux
Membre HCFR
Membre HCFR
 
Messages: 45753
Inscription: 07 Avr 2008 23:03
Localisation: Luxembourg
  • offline

Message » 28 Mar 2012 9:04

Quid du Live à Montreux de Santana ?
Si quelqu'un l'a acheté, un p'tit test serait le bienvenu ! :P
Guts59
 
Messages: 1428
Inscription: 01 Sep 2008 23:18
  • offline

Message » 28 Mar 2012 10:58

Guts59 a écrit:Quid du Live à Montreux de Santana ?
Si quelqu'un l'a acheté, un p'tit test serait le bienvenu ! :P


Niveau son et image, surement une des meilleur de la série "Live at Montreux", en test ici:

http://www.blu-ray.com/movies/Santana-G ... 00/#Review

http://www.blu-raydefinition.com/review ... eview.html
rififi123
 
Messages: 265
Inscription: 29 Jan 2009 12:47
  • offline

Message » 28 Mar 2012 12:58

Merci beaucoup ! 8)

Un p'tit retour sur le Phil Collins m'intéresserait également si c'est pas trop demander. :wink:
Guts59
 
Messages: 1428
Inscription: 01 Sep 2008 23:18
  • offline

Message » 29 Mar 2012 10:45

Image

:idee: http://www.dvdcritiques.com/critiquesHD ... x?dvd=7086

Commandé à l'instant sur amazon uk, non disponible avant le 3 avril en France, mon commentaire suivra dès réception.

Have a nice day ! :friend:
FREDO83
 
Messages: 1227
Inscription: 07 Juil 2004 10:32
  • offline

Message » 31 Mar 2012 11:24

En fait il y a 2 concerts sur le BD :
- principal de 2004 - 16x9 + DD5.1 + dts-HD-MA avec 24 morceaux
- et de 1996 - 4x3 + DD5.1 + dts-HD-MA avec 13 morceaux
Très belle réalisation, l'image est parfaite et le son super (j'ai juste visionné le 1er concert en dts-HD-MA). Et si l'on ajoute une ambiance joyeuse on peut conclure que c'est un excellent BD :D

La configuration dans mon profil


KD-75ZD9 + Rotel RAP-1580 + RMB-1506 + UDP-LX500 + CocktailAudio X-40 + Focal Aria 948+CC900+SR900 + XTZ12.17
ggregg
Membre HCFR
Membre HCFR
 
Messages: 568
Inscription: 19 Aoû 2007 21:06
  • offline

Message » 31 Mar 2012 15:47

Tu le possèdes déjà ??? :wtf: Petit veinard ! :wink:
FREDO83
 
Messages: 1227
Inscription: 07 Juil 2004 10:32
  • offline

Message » 31 Mar 2012 16:35

precommande sur amazon.uk :lol:

La configuration dans mon profil


KD-75ZD9 + Rotel RAP-1580 + RMB-1506 + UDP-LX500 + CocktailAudio X-40 + Focal Aria 948+CC900+SR900 + XTZ12.17
ggregg
Membre HCFR
Membre HCFR
 
Messages: 568
Inscription: 19 Aoû 2007 21:06
  • offline


Retourner vers Musique enregistrée : BD, CD & DVD

 
  • Articles en relation
    Dernier message