Modérateurs: Staff Home-Cinéma, Staff Juridique • Utilisateurs parcourant ce forum: Aucun utilisateur enregistré et 5 invités

Bien comprendre l'Ultra HD, la 4K, et les normes THX, Dolby, DTS, Auro 3D

E-AC3 TO AC3

Message » 09 Juin 2009 17:55

bonjour je suis nouveau ici :)

donc voila comme tout le monde le c'est que les chaines HD diffuses en DD+ 5.1 (E-AC3)

donc moi j'enregistre a partir dvbviewer 4.1.1 et donc voila mon probleme j'arrive pas a encodé le son E-AC3 en AC3

eac3to v3.05
command line: "C:\Documents and Settings\Administrateur\Bureau\HD\automkv\exe\eac3\eac3to.exe" "C:\Documents and Settings\Administrateur\Bureau\test\Confessions intime.ac3" "C:\Documents and Settings\Administrateur\Bureau\test\Confessions intim.ac3"-192
------------------------------------------------------------------------------
E-AC3, 5.0 channels, 0:04:14, 256kbps, 48khz, dialnorm: -27dB
This audio conversion is not supported. <ERROR>


Aidez moi je péte un plomb :)


ah j'ai oublié j'utiluse AUTOMKV pour convertir il me crée un fichier DGA :(:( c'est quoi se délire ??
SkyRusty
 
Messages: 14
Inscription Forum: 09 Juin 2009 17:51
  • offline

Annonce

Message par Google » 09 Juin 2009 17:55

 
 
Publicite

 
Encart supprimé pour les membres HCFR

Message » 09 Juin 2009 23:24

Voila j'ai rélglé mon probléme seul grace a nero wave editor :)
SkyRusty
 
Messages: 14
Inscription Forum: 09 Juin 2009 17:51
  • offline

Message » 10 Juin 2009 13:43

ben finalement nero wave editor ne fonctionne pu :(:(


pouvez vous m'aidez ?
SkyRusty
 
Messages: 14
Inscription Forum: 09 Juin 2009 17:51
  • offline

Message » 10 Juin 2009 13:45

Seul eac3to fonctionne, mais il faut installer Nero 7 pour cela car il se sert du codec installé par celui-ci pour le HD-DVD (ne marche pas avec Nero 8 et 9) . En l'installant tu devrais arriver à faire marcher automkv. Pour devancer une question: non ce n'est pas gratuit.

A noter que eac3to se base sur ffmpeg qui décode le DD+ depuis quelques versions, ce qui me fait attendre une mise à jour de eac3to mais elle tarde à venir.

Note: ton automkv est vieux, le dernier utiliser eac3to 3.15 (qui n'est pas la dernière release, mais la 3.16 ne fait pas mieux concernant l'eac3).
Avatar de l’utilisateur
Dialhot
Administrateur Forum Général
Administrateur Forum Général
 
Messages: 27970
Inscription Forum: 25 Aoû 2005 13:26
Localisation: Waltham, MA
  • offline

Message » 10 Juin 2009 14:51

peut tu me faire un tuto je pattoge là :(

fichier test ==> http://rapidshare.com/files/242960782/T ... mi.ts.html

General
ID : 1
Complete name : C:\Documents and Settings\Administrateur\Mes documents\TF1 HD (fra)_Les experts Miami.ts
Format : MPEG-TS
File size : 69.0 MiB
Duration : 57s 360ms
Overall bit rate : 10.1 Mbps
Maximum Overall bit rate : 35.5 Mbps

Video
ID : 4113 (0x1011)
Menu ID : 1 (0x1)
Format : AVC
Format/Info : Advanced Video Codec
Format profile : Main@L4.0
Format settings, CABAC : Yes
Format settings, ReFrames : 4 frames
Duration : 57s 360ms
Bit rate : 9 135 Kbps
Width : 1 440 pixels
Height : 1 080 pixels
Display aspect ratio : 16/9
Frame rate : 25.000 fps
Resolution : 24 bits
Colorimetry : 4:2:0
Scan type : MBAFF
Bits/(Pixel*Frame) : 0.235
Stream size : 62.5 MiB (91%)

Audio
ID : 4352 (0x1100)
Menu ID : 1 (0x1)
Format : E-AC-3
Format/Info : Audio Coding 3
Duration : 56s 768ms
Bit rate mode : Constant
Bit rate : 256 Kbps
Channel(s) : 6 channels
Channel positions : Front: L C R, Surround: L R, LFE
Sampling rate : 48.0 KHz
Video delay : 29ms
Stream size : 1.73 MiB (3%)
Language : French
SkyRusty
 
Messages: 14
Inscription Forum: 09 Juin 2009 17:51
  • offline

Message » 10 Juin 2009 15:03

Je n'ai jamais utilisé eac3to pour faire cette convertion car je n'ai pas envie de reinstaller Nero 7 juste pour cela, ayant Nero 8 sur mon disque. J'ai simplement constaté que si eac3to exploitait la derniere version de ffmpeg, on se passerait de l'obligation d'installer Nero. Du coup, personnelement j'attends.

CalouD l'a fait:
viewtopic.php?p=172742106#p172742106

Ceci dit je repette que Nero 7 (et son plugin HD-DVD) n'est pas gratuit. Inutile d'en demander plus sur le forum.
Avatar de l’utilisateur
Dialhot
Administrateur Forum Général
Administrateur Forum Général
 
Messages: 27970
Inscription Forum: 25 Aoû 2005 13:26
Localisation: Waltham, MA
  • offline

Message » 10 Juin 2009 23:52

voila j'ai installé NERO 7 met je pense que le plugin bluray hd-dvd est là => Image

donc il faut mettre le dll (dolby digital) dans le dossier EAC3TO ?
SkyRusty
 
Messages: 14
Inscription Forum: 09 Juin 2009 17:51
  • offline

Message » 11 Juin 2009 0:12

Non je crois qu'il le trouve tout seul.
Tu sais te servir d'un programme avec commande en ligne ?
Il suffit de taper "eac3to -test <nomdelapisteson>" et il te dit si tu as les bons codecs.
Avatar de l’utilisateur
Dialhot
Administrateur Forum Général
Administrateur Forum Général
 
Messages: 27970
Inscription Forum: 25 Aoû 2005 13:26
Localisation: Waltham, MA
  • offline

Message » 11 Juin 2009 1:59

moi je suis plutot gui

j'ai essayé yr_eac3to_more_gui.exe en forceant l'encoder nero le log me dit sa ya erreur biensur

I'd like to use the Nero decoder, but it doesn't seem to work


Je voudrais utiliser le décodeur de Nero, mais il ne semble pas fonctionner
SkyRusty
 
Messages: 14
Inscription Forum: 09 Juin 2009 17:51
  • offline

Message » 11 Juin 2009 11:17

Ah... ben là je vais pas pouvoir t'aider, comme expliqué plus haut tu es déjà plus avancé que là où j'en suis arrivé moi même ;).
Avatar de l’utilisateur
Dialhot
Administrateur Forum Général
Administrateur Forum Général
 
Messages: 27970
Inscription Forum: 25 Aoû 2005 13:26
Localisation: Waltham, MA
  • offline

Message » 11 Juin 2009 14:00

personne d'autre pour m'aidez ??? :( C'est quand meme bizar que y'a que moi qui se plaint au niveau du flux audio qui diffuse TF1HD FR2HD ET M6HD
SkyRusty
 
Messages: 14
Inscription Forum: 09 Juin 2009 17:51
  • offline

Message » 11 Juin 2009 14:52

Je crains qu'il ne te faille laisser tomber les interfaces graphiques (comme dit plus haut, Caloud a converti une piste eac3 en ac3 de la TNTHD, je t'ai mis le lien). Ou bien comme moi, attendre une évolution des outils.
Avatar de l’utilisateur
Dialhot
Administrateur Forum Général
Administrateur Forum Général
 
Messages: 27970
Inscription Forum: 25 Aoû 2005 13:26
Localisation: Waltham, MA
  • offline

Message » 12 Juin 2009 0:37

voila j'ai reussi :):) via Nero Wave Editor et les plugins bluray :)

prochainement tuto HD via Youtube :)

il ma fallu quand meme 4 jours non stop a trouvé comment faire :o
SkyRusty
 
Messages: 14
Inscription Forum: 09 Juin 2009 17:51
  • offline

Message » 12 Juin 2009 1:39

Nero Wave Editor gère le 5.1 ? Ben tiens, j'ai appris un truc.
Avatar de l’utilisateur
Dialhot
Administrateur Forum Général
Administrateur Forum Général
 
Messages: 27970
Inscription Forum: 25 Aoû 2005 13:26
Localisation: Waltham, MA
  • offline

Message » 23 Juil 2009 12:08

SkyRusty a écrit:voila j'ai reussi :):) via Nero Wave Editor et les plugins bluray :)

prochainement tuto HD via Youtube :)

il ma fallu quand meme 4 jours non stop a trouvé comment faire :o


si il reste des gens pas en vacances je coince aussi sur le 5.1 alors que le dd+ 2.0 se convertit sans souci (enfin presque..)

Voir capture de mon problème avec eac3to

thx all
Fichiers joints
erreur eac3to.jpg
CalouD
 
Messages: 1626
Inscription Forum: 18 Nov 2006 16:14
Localisation: 33320
  • offline


Retourner vers Normes