Modérateurs: Staff Home-Cinéma, Staff Juridique • Utilisateurs parcourant ce forum: Aucun utilisateur enregistré et 19 invités

Tous les lecteurs Multimédia intégrés type Media Center, Box opérateurs, NMT.
Règles du forum
Avant de poster, merci de prendre connaissance des règles du forum : à lire avant de poster

IAMM NTR83 TNT HD (RTD1283)

Message » 13 Jan 2010 17:44

encore un retour? c'est à cause de la prise USB?

pour ma part tout baigne... à part le time shift: mais là ce n'est pas un pb de machine mais de firmware je pense?
et je confirme que le ventilo est silencieux : simplement, comme dit le test de mpcclub: combien de temps un petit ventilo comme celui-là restera-t-il silencieux...
PS : je teste aussi l'enregistrement d'ARTE HD ce soir.
BABACOOL
 
Messages: 43
Inscription: 05 Jan 2010 16:32
  • offline

Annonce

Message par Google » 13 Jan 2010 17:44

Publicite

 
Encart supprimé pour les membres HCFR

Message » 13 Jan 2010 17:45

BABACOOL a écrit:encore un retour? c'est à cause de la prise USB?

Bé oui :(
Je vous ferais un compte rendu de cette mésaventure.
J'ai ouvert un ticket d'incident chez o2media, ils m'ont retourné un formulaire de RMA cet après-midi, bon ils sont réactifs c'est déjà ça........
Mais je vais me payer au moins 20€ de frais d'envois, les boules.........
Nouchi
 
Messages: 202
Inscription: 23 Sep 2009 12:12
Localisation: Autour du Grand Lyon
  • offline

Message » 13 Jan 2010 17:50

une seule des USB est HS?
BABACOOL
 
Messages: 43
Inscription: 05 Jan 2010 16:32
  • offline

Message » 13 Jan 2010 18:07

oui, celui du haut, tout le reste est OK
Nouchi
 
Messages: 202
Inscription: 23 Sep 2009 12:12
Localisation: Autour du Grand Lyon
  • offline

Message » 13 Jan 2010 18:48

Oui Nouchi je pense moi aussi qu'il est plus simple d'enregistrer le flux reçu en TNT mais sait-on jamais...

Je préfère être sûr et si c'est le cas on aurait enfin l'enregistreur parfait à part le time-shift qui semble ramer.

J'attends ton test, merci
AlainMd
 
Messages: 8
Inscription: 12 Jan 2010 22:58
  • offline

Message » 14 Jan 2010 0:21

Bonsoir,

Comme promis, j'ai fais quelques essais d'enregistrement que je ne posterais pas, vu mon débit adsl montant pourri, mais je vous donne le mediaInfo qui va bien.

ARTE HD
Code: Tout sélectionner
General
ID                               : 4
Complete name                    : /media/66D9250F1BB4D2F4/My Recordings/20100113_2221.ts
Format                           : MPEG-TS
File size                        : 28.9 MiB
Duration                         : 29s 920ms
Overall bit rate                 : 8 093 Kbps
Network name                     : F

Video
ID                               : 720 (0x2D0)
Menu ID                          : 1031 (0x407)
Format                           : AVC
Format/Info                      : Advanced Video Codec
Format profile                   : Main@L4.0
Format settings, CABAC           : Yes
Format settings, ReFrames        : 4 frames
Duration                         : 29s 920ms
Bit rate                         : 7 020 Kbps
Width                            : 1 440 pixels
Height                           : 1 080 pixels
Display aspect ratio             : 16:9
Frame rate                       : 25.000 fps
Resolution                       : 24 bits
Colorimetry                      : 4:2:0
Scan type                        : MBAFF
Bits/(Pixel*Frame)               : 0.181
Stream size                      : 25.0 MiB (87%)
Color primaries                  : BT.709-5, BT.1361, IEC 61966-2-4, SMPTE RP177
Transfer characteristics         : BT.709-5, BT.1361
Matrix coefficients              : BT.709-5, BT.1361, IEC 61966-2-4 709, SMPTE RP177

Audio #1
ID                               : 730 (0x2DA)
Menu ID                          : 1031 (0x407)
Format                           : MPEG Audio
Format version                   : Version 1
Format profile                   : Layer 2
Duration                         : 29s 640ms
Bit rate mode                    : Constant
Bit rate                         : 256 Kbps
Channel(s)                       : 2 channels
Sampling rate                    : 48.0 KHz
Resolution                       : 16 bits
Video delay                      : -780ms
Stream size                      : 926 KiB (3%)
Language                         : French

Audio #2
ID                               : 731 (0x2DB)
Menu ID                          : 1031 (0x407)
Format                           : MPEG Audio
Format version                   : Version 1
Format profile                   : Layer 2
Duration                         : 29s 640ms
Bit rate mode                    : Constant
Bit rate                         : 256 Kbps
Channel(s)                       : 2 channels
Sampling rate                    : 48.0 KHz
Resolution                       : 16 bits
Video delay                      : -726ms
Stream size                      : 926 KiB (3%)
Language                         : German

Text #1
ID                               : 740 (0x2E4)
Menu ID                          : 1031 (0x407)
Format                           : DVB Subtitles
Language                         : French

Text #2
ID                               : 741 (0x2E5)
Menu ID                          : 1031 (0x407)
Format                           : DVB Subtitles
Language                         : German

Text #3
ID                               : 742 (0x2E6)
Menu ID                          : 1031 (0x407)
Format                           : DVB Subtitles
Language                         : French

Menu
ID                               : 710 (0x2C6)
Menu ID                          : 1031 (0x407)
List                             : 720 (0x2D0) (AVC) / 730 (0x2DA) (MPEG Audio, French) / 731 (0x2DB) (MPEG Audio, German) / 740 (0x2E4) (DVB Subtitles, French) / 741 (0x2E5) (DVB Subtitles, German) / 742 (0x2E6) (DVB Subtitles, French)


M6 HD:
Code: Tout sélectionner
General
ID                               : 5
Complete name                    : /media/66D9250F1BB4D2F4/My Recordings/20100113_2223.ts
Format                           : MPEG-TS
File size                        : 19.8 MiB
Duration                         : 22s 464ms
Overall bit rate                 : 7 387 Kbps
Network name                     : F

Video
ID                               : 320 (0x140)
Menu ID                          : 1283 (0x503)
Format                           : AVC
Format/Info                      : Advanced Video Codec
Format profile                   : Main@L4.0
Format settings, CABAC           : Yes
Format settings, ReFrames        : 4 frames
Duration                         : 22s 360ms
Bit rate                         : 6 490 Kbps
Width                            : 1 440 pixels
Height                           : 1 080 pixels
Display aspect ratio             : 16:9
Frame rate                       : 25.000 fps
Resolution                       : 24 bits
Colorimetry                      : 4:2:0
Scan type                        : Interlaced
Bits/(Pixel*Frame)               : 0.167
Stream size                      : 17.3 MiB (87%)
Color primaries                  : BT.709-5, BT.1361, IEC 61966-2-4, SMPTE RP177
Transfer characteristics         : BT.709-5, BT.1361
Matrix coefficients              : BT.709-5, BT.1361, IEC 61966-2-4 709, SMPTE RP177

Audio #1
ID                               : 330 (0x14A)
Menu ID                          : 1283 (0x503)
Format                           : E-AC-3
Format/Info                      : Audio Coding 3
Duration                         : 22s 464ms
Bit rate mode                    : Constant
Bit rate                         : 256 Kbps
Channel(s)                       : 6 channels
Channel positions                : Front: L C R, Surround: L R, LFE
Sampling rate                    : 48.0 KHz
Video delay                      : -1s 245ms
Stream size                      : 702 KiB (3%)
Language                         : French

Audio #2
ID                               : 331 (0x14B)
Menu ID                          : 1283 (0x503)
Format                           : E-AC-3
Format/Info                      : Audio Coding 3
Duration                         : 22s 464ms
Bit rate mode                    : Constant
Bit rate                         : 128 Kbps
Channel(s)                       : 2 channels
Channel positions                : L R
Sampling rate                    : 48.0 KHz
Video delay                      : -1s 251ms
Stream size                      : 351 KiB (2%)
Language                         : qaa

Text
ID                               : 340 (0x154)
Menu ID                          : 1283 (0x503)
Format                           : DVB Subtitles
Language                         : French

Menu
ID                               : 310 (0x136)
Menu ID                          : 1283 (0x503)
List                             : 320 (0x140) (AVC) / 330 (0x14A) (E-AC-3, French) / 331 (0x14B) (E-AC-3, qaa) / 340 (0x154) (DVB Subtitles, French)


France 3
Code: Tout sélectionner
General
ID                               : 1
Complete name                    : /media/66D9250F1BB4D2F4/My Recordings/20100113_2224.ts
Format                           : MPEG-TS
File size                        : 7.94 MiB
Duration                         : 24ms
Overall bit rate                 : 2 776 Mbps
Network name                     : F

Video
ID                               : 220 (0xDC)
Menu ID                          : 283 (0x11B)
Format                           : MPEG Video
Format version                   : Version 2
Format profile                   : Main@Main
Format settings, Matrix          : Default
Duration                         : 14s 520ms
Bit rate mode                    : Variable
Bit rate                         : 15.0 Mbps
Width                            : 544 pixels
Height                           : 576 pixels
Display aspect ratio             : 16:9
Frame rate                       : 25.000 fps
Colorimetry                      : 4:2:0
Scan type                        : Progressive
Scan order                       : Top Field First
Bits/(Pixel*Frame)               : 1.915
Stream size                      : 26.0 MiB

Audio
ID                               : 230 (0xE6)
Menu ID                          : 283 (0x11B)
Format                           : MPEG Audio
Format version                   : Version 1
Format profile                   : Layer 2
Format_Settings_Mode             : Joint stereo / Intensity Stereo + MS Stereo
Duration                         : 14s 472ms
Bit rate mode                    : Constant
Bit rate                         : 192 Kbps
Channel(s)                       : 2 channels
Sampling rate                    : 48.0 KHz
Resolution                       : 16 bits
Video delay                      : -275ms
Stream size                      : 339 KiB (4%)
Language                         : French

Text
ID                               : 240 (0xF0)
Menu ID                          : 283 (0x11B)
Format                           : DVB Subtitles
Language                         : French

Menu
ID                               : 210 (0xD2)
Menu ID                          : 283 (0x11B)
List                             : 220 (0xDC) (MPEG Video) / 230 (0xE6) (MPEG Audio, French) / 240 (0xF0) (DVB Subtitles, French)

On remarque au passage la résolution pourrie de France 3...............

Une émission enregistrée sur Csat (TPS) en HQ
Code: Tout sélectionner
General
Complete name                    : /media/66D9250F1BB4D2F4/My Recordings/20100108_2035.mpg
Format                           : MPEG-PS
File size                        : 9.84 GiB
Duration                         : 2h 29mn
Overall bit rate                 : 9 393 Kbps

Video
ID                               : 224 (0xE0)
Format                           : MPEG Video
Format version                   : Version 2
Format profile                   : Main@Main
Format settings, Matrix          : Default
Duration                         : 2h 29mn
Bit rate mode                    : Variable
Bit rate                         : 8 764 Kbps
Nominal bit rate                 : 9 800 Kbps
Width                            : 720 pixels
Height                           : 576 pixels
Display aspect ratio             : 4:3
Frame rate                       : 25.000 fps
Standard                         : PAL
Colorimetry                      : 4:2:0
Scan type                        : Interlaced
Scan order                       : Top Field First
Bits/(Pixel*Frame)               : 0.845
Stream size                      : 9.18 GiB (93%)

Audio
ID                               : 192 (0xC0)
Format                           : MPEG Audio
Format version                   : Version 1
Format profile                   : Layer 2
Duration                         : 2h 29mn
Bit rate mode                    : Constant
Bit rate                         : 256 Kbps
Channel(s)                       : 2 channels
Sampling rate                    : 48.0 KHz
Resolution                       : 16 bits
Video delay                      : -99ms
Stream size                      : 275 MiB (3%)

Remarque: On ne peut pas sélectionner l'aspect ratio (4:3 par défaut) pour les enregistrements analogiques, ce qui oblige à jouer du zoom sur la télé pour retrouver le format original (4:3 complet sur mon panasonic), et avec VLC il faut forcer le format en 16:9, sinon pas de décalage, simplement ça marche.......

Donc on voit donc que pour la TNT le NTR83 enregistre bien le flux ts, et qu'il encode les entrée analogique en MPEG2-PS.
Et maintenant, Zouuuuuuuu, retour SAV.............

Sont chier chez pixmania, pourraient prendre en charge les frais de retour!!!!
Nouchi
 
Messages: 202
Inscription: 23 Sep 2009 12:12
Localisation: Autour du Grand Lyon
  • offline

Message » 14 Jan 2010 10:14

vidéos\20100114_0748.ts
Format : MPEG-TS
Taille du fichier : 23,4 Mio
Durée : 24s 53ms
Débit global moyen : 8 168 Kbps
Nom du réseau : F

Vidéo
ID : 720 (0x2D0)
ID de menu : 1031 (0x407)
Format : AVC
Format/Info : Advanced Video Codec
Profil du format : Main@L4.0
Paramètres du format, CABAC : Oui
Paramètres du format, RefFrames : 4 images
Durée : 24s 80ms
Débit : 7 089 Kbps
Largeur : 1 440 pixels
Hauteur : 1 080 pixels
Format à l'écran : 16/9
Images par seconde : 25,000 Im/s
Résolution : 8 bits
Colorimétrie : 4:2:0
Type d'image : MBAFF
Bits/(Pixel*Image) : 0.182
Taille du flux : 20,3 Mio (87%)
Coordonnées de chromaticité : BT.709-5, BT.1361, IEC 61966-2-4, SMPTE RP177
Charactéristiques du transfert : BT.709-5, BT.1361
Coefficients de la matrice : BT.709-5, BT.1361, IEC 61966-2-4 709, SMPTE RP177

Audio #1
ID : 730 (0x2DA)
ID de menu : 1031 (0x407)
Format : MPEG Audio
Version du format : Version 1
Profil du format : Layer 2
Durée : 23s 880ms
Type de débit : Constant
Débit : 256 Kbps
Canaux : 2 canaux
Echantillonnage : 48,0 KHz
Delai par rapport Vidéo : -740ms
Taille du flux : 746 Kio (3%)
Langue : Français

Audio #2
ID : 731 (0x2DB)
ID de menu : 1031 (0x407)
Format : MPEG Audio
Version du format : Version 1
Profil du format : Layer 2
Durée : 24s 0ms
Type de débit : Constant
Débit : 256 Kbps
Canaux : 2 canaux
Echantillonnage : 48,0 KHz
Delai par rapport Vidéo : -806ms
Taille du flux : 750 Kio (3%)
Langue : Allemand

Texte #1
ID : 740 (0x2E4)
ID de menu : 1031 (0x407)
Format : DVB Subtitles
Langue : Français

Texte #2
ID : 741 (0x2E5)
ID de menu : 1031 (0x407)
Format : DVB Subtitles
Langue : Allemand

Texte #3
ID : 742 (0x2E6)
ID de menu : 1031 (0x407)
Format : DVB Subtitles
Langue : Français

Menu
ID : 710 (0x2C6)
ID de menu : 1031 (0x407)
Durée : 24s 53ms
Liste : 720 (0x2D0) (AVC) / 730 (0x2DA) (MPEG Audio, Français) / 731 (0x2DB) (MPEG Audio, Allemand) / 740 (0x2E4) (DVB Subtitles, Français) / 741 (0x2E5) (DVB Subtitles, Allemand) / 742 (0x2E6) (DVB Subtitles, Français)


enregistrement d'ARTE en HD : je ne comprend rien ... mais c'est la même chose q
BABACOOL
 
Messages: 43
Inscription: 05 Jan 2010 16:32
  • offline

Message » 14 Jan 2010 10:15

vidéos\20100114_0748.ts
Format : MPEG-TS
Taille du fichier : 23,4 Mio
Durée : 24s 53ms
Débit global moyen : 8 168 Kbps
Nom du réseau : F

Vidéo
ID : 720 (0x2D0)
ID de menu : 1031 (0x407)
Format : AVC
Format/Info : Advanced Video Codec
Profil du format : Main@L4.0
Paramètres du format, CABAC : Oui
Paramètres du format, RefFrames : 4 images
Durée : 24s 80ms
Débit : 7 089 Kbps
Largeur : 1 440 pixels
Hauteur : 1 080 pixels
Format à l'écran : 16/9
Images par seconde : 25,000 Im/s
Résolution : 8 bits
Colorimétrie : 4:2:0
Type d'image : MBAFF
Bits/(Pixel*Image) : 0.182
Taille du flux : 20,3 Mio (87%)
Coordonnées de chromaticité : BT.709-5, BT.1361, IEC 61966-2-4, SMPTE RP177
Charactéristiques du transfert : BT.709-5, BT.1361
Coefficients de la matrice : BT.709-5, BT.1361, IEC 61966-2-4 709, SMPTE RP177

Audio #1
ID : 730 (0x2DA)
ID de menu : 1031 (0x407)
Format : MPEG Audio
Version du format : Version 1
Profil du format : Layer 2
Durée : 23s 880ms
Type de débit : Constant
Débit : 256 Kbps
Canaux : 2 canaux
Echantillonnage : 48,0 KHz
Delai par rapport Vidéo : -740ms
Taille du flux : 746 Kio (3%)
Langue : Français

Audio #2
ID : 731 (0x2DB)
ID de menu : 1031 (0x407)
Format : MPEG Audio
Version du format : Version 1
Profil du format : Layer 2
Durée : 24s 0ms
Type de débit : Constant
Débit : 256 Kbps
Canaux : 2 canaux
Echantillonnage : 48,0 KHz
Delai par rapport Vidéo : -806ms
Taille du flux : 750 Kio (3%)
Langue : Allemand

Texte #1
ID : 740 (0x2E4)
ID de menu : 1031 (0x407)
Format : DVB Subtitles
Langue : Français

Texte #2
ID : 741 (0x2E5)
ID de menu : 1031 (0x407)
Format : DVB Subtitles
Langue : Allemand

Texte #3
ID : 742 (0x2E6)
ID de menu : 1031 (0x407)
Format : DVB Subtitles
Langue : Français

Menu
ID : 710 (0x2C6)
ID de menu : 1031 (0x407)
Durée : 24s 53ms
Liste : 720 (0x2D0) (AVC) / 730 (0x2DA) (MPEG Audio, Français) / 731 (0x2DB) (MPEG Audio, Allemand) / 740 (0x2E4) (DVB Subtitles, Français) / 741 (0x2E5) (DVB Subtitles, Allemand) / 742 (0x2E6) (DVB Subtitles, Français)


enregistrement d'ARTE en HD : je ne comprend rien ... mais c'est la même chose que NOUCHI !
BABACOOL
 
Messages: 43
Inscription: 05 Jan 2010 16:32
  • offline

Message » 14 Jan 2010 10:33

Bonjour,

Brève explication :
Format : MPEG-TS => format du conteneur (de la vidéo, du son, sous titre etc.....)
Vidéo Format : AVC => H.264 ou AVC (Advanced Video Coding)
Largeur : 1 440 pixels
Hauteur : 1 080 pixels => c'est bien de la HD!!!

Conclusion, le NTR83 enregistre bien le flux TNT sans modifications
Nouchi
 
Messages: 202
Inscription: 23 Sep 2009 12:12
Localisation: Autour du Grand Lyon
  • offline

Message » 14 Jan 2010 11:42

merci de ces explications: pour moi c'était du chinois.

j'ai enregistré hier soir l'émission sur Vanessa PARADIS sur le canal 182 de CALALSAT(CANAL + en HD) : mais via la PERITEL branchée depuis le décodeur ORANGE (qui me fournit aussi les chaines cryptées CANAL) : j'imagine que via la SCAT, je n'ai pas la qualité HD en copie?

je ne sais pas comment tester ce gros fichier (1h15 de vidéo) par MEDIAINFO : il faudrait que je le tranfère sur mon PC d'abord? je ne peux pas le tester directement sur le DD du NTR83?
BABACOOL
 
Messages: 43
Inscription: 05 Jan 2010 16:32
  • offline

Message » 14 Jan 2010 13:01

BABACOOL a écrit:merci de ces explications: pour moi c'était du chinois.

j'ai enregistré hier soir l'émission sur Vanessa PARADIS sur le canal 182 de CALALSAT(CANAL + en HD) : mais via la PERITEL branchée depuis le décodeur ORANGE (qui me fournit aussi les chaines cryptées CANAL) : j'imagine que via la SCAT, je n'ai pas la qualité HD en copie?

Ben Non, sur l'entrée SCART c'est du signal vidéo composite, donc il ne faut pas attendre de miracle,
c'est de la bonne vieille technologie d'il y a ........ 30ans?

BABACOOL a écrit:je ne sais pas comment tester ce gros fichier (1h15 de vidéo) par MEDIAINFO : il faudrait que je le tranfère sur mon PC d'abord? je ne peux pas le tester directement sur le DD du NTR83?

Soit tu passe par le partage réseau (samba) et tu vas directement depuis ton pc (voisinage réseau) lire le fichier dans le NTR83, soit tu raccordes le NTR83 au PC par le connecteur USB device et tu va lire le fichier dans le lecteur directement, tu peux aussi rapatrier le fichier via un client FTP...............
Nouchi
 
Messages: 202
Inscription: 23 Sep 2009 12:12
Localisation: Autour du Grand Lyon
  • offline

Message » 14 Jan 2010 15:00

du NTR j'ai bien accès en WIFI aux "favoris réseau" "sharedocs..." : fichiers partagés sur mon PC.

mais du PC, comment accéder aux fichiers du NTR en WIFI ? car la distance est trop longue pour le cable PC...

il faut utiliser qq chose comme "SANBA" ? c'est facile à mettre en oeuvre?

merci encore...
BABACOOL
 
Messages: 43
Inscription: 05 Jan 2010 16:32
  • offline

Message » 14 Jan 2010 15:10

ben non , en fait c'est automatique : quand je clique sur connection réseau, il trouve "HDD sur Samba Server Version 3.0.23c (Ntr8x)

c'est super : du PC on peut deplacer, copier etc les fichiers du NTR83 via le réseau WIFI !

je m'émerveille chaque jour de la technique...
BABACOOL
 
Messages: 43
Inscription: 05 Jan 2010 16:32
  • offline

Message » 14 Jan 2010 15:23

c'est fait pour ça!!!! :lol:
Nouchi
 
Messages: 202
Inscription: 23 Sep 2009 12:12
Localisation: Autour du Grand Lyon
  • offline

Message » 14 Jan 2010 15:29

petite précision : il fallait que je sois sur le "FILE-MANAGER" dans le menu du NTR pour que mon PC le reconnaisse comme HDD avec ses fichiers...

c'est normal ?
BABACOOL
 
Messages: 43
Inscription: 05 Jan 2010 16:32
  • offline


Retourner vers Lecteurs et Box Multimedia

 
  • Articles en relation
    Dernier message